DR

Sekcia: Ostatné 15.10.2015 | 09:28
Avatar www   Používateľ

Zdarec. Jak sa dá jednoduchým spôsobom zmerať Dynamic Range (DR) CD/LP/FLAC/MP3 album v Linuxe?

    • RE: DR 15.10.2015 | 09:45
      Avatar WlaSaTy   Návštevník

      Dynamický rozsah sa dá zmerať bez problému. Otázka je či náhodou nemyslíš niečo iné.

      • RE: DR 15.10.2015 | 09:51
        Avatar www   Používateľ

        Čo iné? Potrebujem zmerať kvalitu zvuku na albume. Dynamic Range (presný popis merania každej piesne).

        • RE: DR 15.10.2015 | 12:31
          Avatar WlaSaTy   Návštevník

          Kvalita zvuku sa nemeria dynamickým rozsahom hlasitosti, tým zmeriaš len hlukové rozdiely. Do kvality sa ráta najmä skreslenie.

    • RE: DR 15.10.2015 | 12:02
      Avatar bedňa antiX, Devuan, LegacyIce  Administrátor

      Myslíš takéto niečo?

      Táto správa neobsahuje vírus, pretože nepoužívam MS Windows. http://kernelultras.org
      • RE: DR 15.10.2015 | 13:47
        Avatar www   Používateľ

        Áno

        • RE: DR 15.10.2015 | 15:19
          Avatar bedňa antiX, Devuan, LegacyIce  Administrátor

          Máš tam balíčky pre väčšinu známych ditribúcií.

          Táto správa neobsahuje vírus, pretože nepoužívam MS Windows. http://kernelultras.org
          • RE: DR 15.10.2015 | 16:55
            Avatar www   Používateľ

            Dík, všimol som si. Skúsim to inštalovať (hoci netuším, ako ten T.Meter funguje).

            • RE: DR 15.10.2015 | 20:18
              Avatar bedňa antiX, Devuan, LegacyIce  Administrátor

              Chceš to vysvetliť?

              Táto správa neobsahuje vírus, pretože nepoužívam MS Windows. http://kernelultras.org
              • RE: DR 15.10.2015 | 20:36
                Avatar www   Používateľ

                Ak s tým máš skúsenosti....áno.

                • RE: DR 15.10.2015 | 21:12
                  Avatar bedňa antiX, Devuan, LegacyIce  Administrátor

                  Prejdeš do priečinku s muzikou napr ako ja:

                  cd Music/Zona\ A\ -\ Na\ predaj/
                  Spustíš

                  dr14_tmeter

                  Výstup z terminálu:

                  mario@s29:~$ cd Music/Zona\ A\ -\ Na\ predaj/
                  mario@s29:~/Music/Zona A - Na predaj$ dr14_tmeter 
                  /home/mario/Music/Zona A - Na predaj
                  
                  
                  ------------------------------------------------------------ 
                  > Scan Dir: /home/mario/Music/Zona A - Na predaj 
                  
                  chleba.wma: 	 DR 9
                  Bratislavske dievcata.wma: 	 DR 8
                  haf haf.wma: 	 DR 8
                  idealny svet.wma: 	 DR 9
                  hlasy z podzemia.wma: 	 DR 8
                  je to jedno.wma: 	 DR 8
                  ja ta nechcem.wma: 	 DR 8
                  na predaj.wma: 	 DR 8
                  nebud hlupa.wma: 	 DR 8
                  nech si kazdy rob¡ to co chce.wma: 	 DR 8
                  pani dokonala.wma: 	 DR 8
                  sanitka.wma: 	 DR 8
                  som zly.wma: 	 DR 8
                  zavisly+rappajoupollalli.wma: 	 DR 8
                  DR = 8
                  
                  - The full result has been written in the files:  dr14.txt 
                  - located in the directory: 
                  /home/mario/Music/Zona A - Na predaj
                  
                  Success! 
                  Elapsed time: 7.34 sec

                  DR je práve hodnota Dynamic range.

                  Pokiaľ použiješ prepínač -p výstup bude vyzerať asi takto:

                  ----------------------------------------------------------------------------------------------	
                   Analyzed: Na predaj /  Artist: Unknown Artist
                  ----------------------------------------------------------------------------------------------	
                  DR	Peak	RMS	Duration	Title [codec]	
                  ----------------------------------------------------------------------------------------------	
                   DR8	 -0.00 dB	 -9.29 dB	2:39	05 - Bratislavské dievčatá 	 [None]	
                   DR9	 -0.00 dB	 -9.43 dB	2:02	10 - Všetko je na piču 	 [None]	
                   DR8	 -0.00 dB	 -9.40 dB	1:30	haf haf.wma	
                   DR8	 -0.00 dB	 -9.09 dB	3:12	08 - Hlasy z podzemia 	 [None]	
                   DR9	 -0.00 dB	 -9.51 dB	1:56	13 - Ideálny svet 	 [None]	
                   DR8	 -0.00 dB	 -9.07 dB	2:02	02 - Ja ťa nechcem 	 [None]	
                   DR8	 -0.00 dB	 -9.60 dB	1:21	09 - Je to jedno 	 [None]	
                   DR8	 -0.00 dB	 -9.06 dB	2:14	12 - na predaj: 	 [None]	
                   DR8	 -0.00 dB	 -9.39 dB	3:00	01 - Nebuď hlúpa 	 [None]	
                   DR8	 -0.00 dB	 -9.13 dB	2:39	03 - Nech si každý robí čo chce 	 [None]	
                   DR8	 -0.00 dB	 -8.74 dB	1:28	04 - Pani Dokonalá 	 [None]	
                   DR8	 -0.00 dB	 -9.14 dB	2:25	11 - Sanitka 	 [None]	
                   DR8	 -0.00 dB	 -9.06 dB	2:58	06 - Som zlý 	 [None]	
                   DR8	 -0.00 dB	 -10.11 dB	6:33	14 - Závislí   + bonus from Suomi 	 [None]	
                  ----------------------------------------------------------------------------------------------	
                  Táto správa neobsahuje vírus, pretože nepoužívam MS Windows. http://kernelultras.org
                  • RE: DR 15.10.2015 | 21:27
                    Avatar www   Používateľ

                    Vďaka. Presne o tie hodnoty výstupu mi ide.

                    • RE: DR 15.10.2015 | 21:41
                      Avatar bedňa antiX, Devuan, LegacyIce  Administrátor

                      Nieje zač priateľu.

                      Táto správa neobsahuje vírus, pretože nepoužívam MS Windows. http://kernelultras.org
                      • RE: DR 15.10.2015 | 21:51
                        Avatar www   Používateľ

                        Ide to. Len ten prepínač neviem, jak konkrétne spustím. Asi mi to večer už nepáli :)

                        • RE: DR 15.10.2015 | 22:03
                          Avatar bedňa antiX, Devuan, LegacyIce  Administrátor

                          dr14_tmeter -p

                          Táto správa neobsahuje vírus, pretože nepoužívam MS Windows. http://kernelultras.org
                          • RE: DR 15.10.2015 | 22:08
                            Avatar www   Používateľ

                            OK. Ešte otázočku. Obsah nameraných informácií sa ukladá niekde? Ak hej, kde a ako to zmažem?

                            • RE: DR 15.10.2015 | 22:50
                              Avatar www   Používateľ

                              Takže sa to ukladá do priečinka Interpret/Album.

                              • RE: DR 15.10.2015 | 22:52
                                Avatar bedňa antiX, Devuan, LegacyIce  Administrátor

                                Áno, trafil si.

                                Táto správa neobsahuje vírus, pretože nepoužívam MS Windows. http://kernelultras.org
                        • RE: DR 15.10.2015 | 22:06
                          Avatar bedňa antiX, Devuan, LegacyIce  Administrátor

                          Kľudne sa pýtaj čomu nerozumieš, prepínač alias option sa píše za príkaz, proste medzera a prepínač.

                          Táto správa neobsahuje vírus, pretože nepoužívam MS Windows. http://kernelultras.org