Mex Converter

Sekcia: Aplikácie & Desktop 31.08.2009 | 12:17
Avatar Gabo Kohel lubuntu  Používateľ
Ahoj chcel som mať v pc soft ktorý by robil veci do 3gp teda na mobil našiel som tento soft
http://www.webixon.php5.sk/index.php?odkaz=/Moje_projekty/MexConverter
Ale po instalacici neroby nič ked sa spusti vyhodí na pol sekundy toto aj to sa mi podarilo odfotit na 7 pokus :)
http://www.stooorage.com/show/173/225043_obrazovka.png

Vie mi niekto poradiť ako mam rozbehnúť tento soft? lebo tu na fore som čital že je perfektný ale u mňa asi nie
používam mint7 gloria gnome prostredie
    • Re: Mex Converter 31.08.2009 | 12:58
      Avatar Dare_devil Debian, OpenSuse  Používateľ
      Pornoakce_7.wmv :D:D:D:D

      Ja to robim tak, ze za pomoci pluginu vo firefoxe stiahnem video, potom idem na mediaconverter.org a tam si to prekonvertujem... Je to najlepsi sposob aky som zatial nasiel, je to jednoduche , dobre ovladatelne a pristupne...
      There is no flag large enough to cover the shame of killing innocent people
    • Re: Mex Converter 31.08.2009 | 13:19
      Avatar Zefram Cochrane MS Windows Vista Ultimate 64bi  Používateľ
      Nad tlacitkom "Prekonvertuj subor" je napisany prikaz ktory sa pouzije na konverziu.

      1. Skopiruj ho a pastni ho sem
      2. Spusti ho rucne v terminali v tom adresari kde je to zdrojove video
      3. Pastni sem vysledok co sa vypise v terminali
      • Re: Mex Converter 31.08.2009 | 14:17
        Avatar Milan Dvorský debian,mint kde,android  Administrátor
        ides na to dobre, ja som tam nasiel bug ... treba kliknut na manualne nastavenie parametrov a az tak to odpalit ... ak sa nemylim, mas zvolene default nastavenie ...
      • Re: Mex Converter 05.09.2009 | 21:16
        Avatar Gabo Kohel lubuntu  Používateľ
        toto je tvoj krok 2

        ffmpeg -y -i "/home/trixx/Videá/A_Claus_finan__n___krize___esk___podtitulky_500mb.avi" -aspect 16:9 -s cif -r 25 -b 200000 -ar 44100 -ab 64000 "/home/trixx/Projekty/A_Claus_finan__n___krize___esk___podtitulky_500mb.mp4"


        krok 3

        FFmpeg version 0.5-svn17737+3:0.svn20090303-1ubuntu6, Copyright (c) 2000-2009 Fabrice Bellard, et al.
        configuration: --enable-gpl --enable-postproc --enable-swscale --enable-x11grab --extra-version=svn17737+3:0.svn20090303-1ubuntu6 --prefix=/usr --enable-avfilter --enable-avfilter-lavf --enable-libgsm --enable-libschroedinger --enable-libspeex --enable-libtheora --enable-libvorbis --enable-pthreads --disable-stripping --disable-vhook --enable-libdc1394 --disable-armv5te --disable-armv6 --disable-armv6t2 --disable-armvfp --disable-neon --disable-altivec --disable-vis --enable-shared --disable-static
        libavutil 49.15. 0 / 49.15. 0
        libavcodec 52.20. 0 / 52.20. 0
        libavformat 52.31. 0 / 52.31. 0
        libavdevice 52. 1. 0 / 52. 1. 0
        libavfilter 0. 4. 0 / 0. 4. 0
        libswscale 0. 7. 1 / 0. 7. 1
        libpostproc 51. 2. 0 / 51. 2. 0
        built on Apr 10 2009 23:18:41, gcc: 4.3.3
        [NULL @ 0x89fcdb0]Invalid and inefficient vfw-avi packed B frames detected
        Input #0, avi, from '/home/trixx/Videá/A_Claus_finan__n___krize___esk___podtitulky_500mb.avi':
        Duration: 01:32:31.60, start: 0.000000, bitrate: 736 kb/s
        Stream #0.0: Video: mpeg4, yuv420p, 720x576 [PAR 1:1 DAR 5:4], 25 tbr, 25 tbn, 25 tbc
        Stream #0.1: Audio: mp3, 48000 Hz, stereo, s16, 128 kb/s
        Output #0, mp4, to '/home/trixx/Projekty/A_Claus_finan__n___krize___esk___podtitulky_500mb.mp4':
        Stream #0.0: Video: 0x0000, yuv420p, 352x288 [PAR 16:11 DAR 16:9], q=2-31, 200 kb/s, 90k tbn, 25 tbc
        Stream #0.1: Audio: 0x0000, 44100 Hz, stereo, s16, 64 kb/s
        Stream mapping:
        Stream #0.0 -> #0.0
        Stream #0.1 -> #0.1
        Unsupported codec for output stream #0.0




        a aj tak to nespravilo nič a ak treba niečo prestaviť poslielam link na foto ako to mám nastavene
        http://www.stooorage.com/show/178/231905_obrazovka.png
        • Re: Mex Converter 05.09.2009 | 21:37
          Avatar Samuel BWPOW Kupka CentOS, Mandriva  Používateľ
          Proste ffmpeg, tak, ako ho mas skompilovany, nepodporuje "mpeg4" codec. Tam to mas doslovne napisane.
          Strach dát najevo své pocity a zjednat si u druhých respekt je jedním z problémů civilizovaného člověka, který se naučil zpochybňovat svou vlastní pravdu pro zdání objektivity
    • Re: Mex Converter 05.09.2009 | 21:47
      julo   Návštevník
      Vyskúšaj Pytube, kukni na http://www.ubuntugeek.com/pytube-best-youtubegoogle-manager-downloader-and-video-converter-for-ubuntu-linux.html/comment-page-1
    • Re: Mex Converter 06.09.2009 | 15:45
      Avatar bedňa antiX, Devuan, LegacyIce  Administrátor
      No ten soft som robil ja, chcelo by to ešte nejaké úpravy aby si sám zistil aké podporuje formáty ffmpeg, to niekedy keď bude čas, ale zatiaľ Ti možno pomôže nainštaľovanie toho ffmpeg s podporov skoro všetkých formátov http://webixon.php5.sk/index.php?odkaz=/Ubuntu/Software/ffmpeg
      Musíš nainštaľovať všetkých 9 balíčkov, presne v poradí od vrchného k spodnému, potom znovu vyskúšaj konverziu cez MexConverter.
      Táto správa neobsahuje vírus, pretože nepoužívam MS Windows. http://kernelultras.org
      • Re: Mex Converter 06.09.2009 | 21:13
        Avatar Gabo Kohel lubuntu  Používateľ
        Avidemux to vyriesil
      • Re: Mex Converter 12.09.2010 | 01:59
        Avatar bedňa antiX, Devuan, LegacyIce  Administrátor
        Program na konverziu som premiestnil na nový web
        Táto správa neobsahuje vírus, pretože nepoužívam MS Windows. http://kernelultras.org